<?xml version="1.0" standalone="no"?>
<!DOCTYPE svg PUBLIC "-//W3C//DTD SVG 1.1//EN" "http://www.w3.org/Graphics/SVG/1.1/DTD/svg11.dtd" >
<svg xmlns="http://www.w3.org/2000/svg" xmlns:xlink="http://www.w3.org/1999/xlink" version="1.1">
<metadata></metadata>
<defs>
<font id="ignazio_displayregular" horiz-adv-x="1175" >
<font-face units-per-em="2048" ascent="1587" descent="-461" />
<missing-glyph horiz-adv-x="512" />
<glyph horiz-adv-x="0" />
<glyph horiz-adv-x="682" />
<glyph unicode=" "  horiz-adv-x="512" />
<glyph unicode="&#x09;" horiz-adv-x="512" />
<glyph unicode="&#xa0;" horiz-adv-x="512" />
<glyph unicode="!" horiz-adv-x="645" d="M205 1434h235l-28 -973h-179zM209 0v238h227v-238h-227z" />
<glyph unicode="&#x22;" horiz-adv-x="731" d="M82 1536h209l-25 -449h-162zM440 1536h209l-24 -449h-162z" />
<glyph unicode="#" horiz-adv-x="1372" d="M123 358v164h223l23 400h-205v163h215l18 349h181l-19 -349h275l18 349h182l-18 -349h213v-163h-223l-23 -400h205v-164h-213l-21 -358h-180l21 358h-275l-20 -358h-183l21 358h-215zM528 522h275l20 400h-274z" />
<glyph unicode="$" horiz-adv-x="1126" d="M111 70l96 166q147 -72 321 -72q132 0 206.5 54t74.5 147q0 49 -23 90.5t-61.5 73t-88.5 60t-105 56t-110 57t-105 66.5t-88.5 80.5t-61.5 103.5t-23 131q0 144 91 241.5t251 125.5l-4 203h189l-4 -197q182 -13 303 -78l-92 -157q-135 53 -283 53q-114 0 -178 -52.5 t-64 -134.5q0 -51 28.5 -94.5t75.5 -74t107 -63t122 -60.5t122 -68t107 -84.5t75.5 -111t28.5 -146.5q0 -166 -95 -268.5t-268 -130.5l4 -205h-188l4 194q-108 4 -204.5 29.5t-159.5 65.5z" />
<glyph unicode="%" horiz-adv-x="1611" d="M102 1126q0 150 89.5 241t236.5 91q146 0 235 -91.5t89 -240.5q0 -151 -89 -242t-235 -91q-148 0 -237 91t-89 242zM236 147l999 1225l139 -78l-997 -1224zM264 1126q0 -81 45 -130.5t119 -49.5t118 49t44 131q0 80 -44.5 128.5t-117.5 48.5q-74 0 -119 -49t-45 -128z M860 309q0 150 89.5 241t236.5 91q146 0 234.5 -91t88.5 -241q0 -151 -88.5 -242.5t-234.5 -91.5q-148 0 -237 91.5t-89 242.5zM1022 309q0 -81 45 -130.5t119 -49.5t118 49t44 131q0 80 -44.5 128t-117.5 48q-74 0 -119 -48.5t-45 -127.5z" />
<glyph unicode="&#x26;" horiz-adv-x="1349" d="M113 324q0 -157 104.5 -253t274.5 -96q238 0 438 203q169 -131 307 -194l92 163q-143 64 -282 166q90 124 204 355l-155 92q-115 -231 -193 -338q-145 121 -258 270q65 34 114.5 65t102 74t86.5 86.5t56 100t22 117.5q0 146 -94 234.5t-248 88.5q-176 0 -281.5 -107.5 t-105.5 -285.5q0 -134 96 -311q-280 -172 -280 -430zM311 348q0 141 181 262q129 -174 294 -319q-137 -131 -268 -131q-94 0 -150.5 52t-56.5 136zM481 1075q0 90 56.5 149.5t146.5 59.5q69 0 113.5 -47.5t44.5 -116.5q1 -48 -22 -89.5t-69.5 -77.5t-89.5 -61t-110 -58 q-70 137 -70 241z" />
<glyph unicode="'" horiz-adv-x="372" d="M82 1536h209l-25 -449h-162z" />
<glyph unicode="(" horiz-adv-x="702" d="M102 625q0 315 120 557t343 377l88 -156q-164 -111 -257 -315t-93 -463t93 -463.5t257 -315.5l-88 -155q-223 135 -343 377t-120 557z" />
<glyph unicode=")" horiz-adv-x="702" d="M49 -154q164 111 257 315.5t93 463.5t-93 463t-257 315l88 156q223 -135 343 -377t120 -557t-120 -557t-343 -377z" />
<glyph unicode="*" horiz-adv-x="851" d="M27 1221l32 163l285 -122l-22 297l170 20l-33 -317l270 120l74 -155l-311 -66l221 -223l-127 -119l-185 266l-165 -256l-150 82l225 250z" />
<glyph unicode="+" d="M102 471v191l392 -5l-5 381h197l-4 -381l391 5v-191l-391 4l4 -381h-197l5 381z" />
<glyph unicode="," horiz-adv-x="659" d="M164 -221l110 473h222l-170 -473h-162z" />
<glyph unicode="-" horiz-adv-x="819" d="M82 473v184h655v-184h-655z" />
<glyph unicode="." horiz-adv-x="571" d="M164 0v252h244v-252h-244z" />
<glyph unicode="/" horiz-adv-x="884" d="M102 -68l514 1651l166 -96l-514 -1653z" />
<glyph unicode="0" horiz-adv-x="1273" d="M102 717q0 350 141.5 545.5t393.5 195.5t393 -195.5t141 -545.5t-141 -546t-393 -196t-393.5 196t-141.5 546zM311 717q0 -258 86 -402.5t240 -144.5t240 144.5t86 402.5t-86 402.5t-240 144.5t-240 -144.5t-86 -402.5z" />
<glyph unicode="1" horiz-adv-x="749" d="M20 1231l334 203h191v-1434h-203v1233l-4 2l-236 -150z" />
<glyph unicode="2" horiz-adv-x="1085" d="M86 0h883v190h-623l-2 5q278 281 364 379q173 196 221 339q27 78 27 158q0 195 -116 291t-336 96q-219 0 -404 -104l99 -170q153 76 311 76q110 0 171.5 -51t61.5 -148q0 -37 -7.5 -73t-28.5 -78t-40.5 -76t-61.5 -86t-72.5 -88t-92.5 -101.5t-102 -106t-121 -123.5 t-131 -134v-195z" />
<glyph unicode="3" horiz-adv-x="1081" d="M39 59q176 -84 410 -84q253 0 387.5 99.5t134.5 287.5q0 143 -91 244.5t-241 124.5v4q132 34 211.5 130.5t79.5 221.5q0 179 -119 275t-342 96q-190 0 -391 -84l96 -166q154 56 299 56q118 0 183 -53.5t65 -147.5q0 -120 -126.5 -186t-358.5 -66v-180q252 0 387 -63.5 t135 -180.5q0 -102 -79 -159.5t-224 -57.5q-169 0 -320 55z" />
<glyph unicode="4" horiz-adv-x="1146" d="M41 317v181l575 934l265 2v-942h194v-175h-194v-317h-199v317h-641zM229 496l2 -4h451v727l-4 2z" />
<glyph unicode="5" horiz-adv-x="1116" d="M102 55q65 -38 168 -59t217 -21q249 0 388 120t139 335q0 206 -140.5 321t-390.5 115h-108v377h553v191h-748v-754q118 10 234 10q194 0 290.5 -67t96.5 -193q0 -121 -84 -188.5t-234 -67.5q-158 0 -288 47z" />
<glyph unicode="6" horiz-adv-x="1128" d="M86 520q0 221 82 413t241.5 331t374.5 196l95 -162q-428 -113 -564 -481l4 -2q127 92 275 92q201 0 324.5 -126.5t123.5 -336.5t-132.5 -339.5t-346.5 -129.5q-215 0 -346 147t-131 398zM285 444q0 -126 76 -202t202 -76t202.5 76t76.5 202t-76.5 203.5t-202.5 77.5 t-202 -77.5t-76 -203.5z" />
<glyph unicode="7" horiz-adv-x="968" d="M41 1243v191h866v-189l-565 -1272l-178 103l524 1163l-2 4h-645z" />
<glyph unicode="8" horiz-adv-x="1163" d="M102 383q0 -182 133 -295t351 -113q213 0 344 113t131 295q0 128 -69 221t-183 150v4q213 117 213 329q0 167 -119.5 269t-316.5 102q-200 0 -322.5 -102t-122.5 -269q0 -212 213 -329v-4q-117 -56 -184.5 -149t-67.5 -222zM303 393q0 90 57.5 164.5t167.5 114.5 q161 -18 246.5 -94t85.5 -185q0 -100 -76.5 -164t-201.5 -65t-202 62.5t-77 166.5zM338 1077q0 89 67.5 143t176.5 54t176 -54t67 -143q0 -84 -51 -149.5t-149 -100.5q-140 15 -213.5 81t-73.5 169z" />
<glyph unicode="9" horiz-adv-x="1128" d="M92 989q0 211 130 340t343 129q212 0 341.5 -142.5t129.5 -375.5q0 -349 -180.5 -598.5t-511.5 -368.5l-94 162q216 87 348.5 196.5t206.5 278.5l-4 2q-128 -92 -266 -92q-199 0 -321 129t-122 340zM287 989q0 -127 76.5 -207t201.5 -80t202 80t77 207t-77 206t-202 79 t-201.5 -79t-76.5 -206z" />
<glyph unicode=":" horiz-adv-x="571" d="M164 0v252h244v-252h-244zM164 874v252h244v-252h-244z" />
<glyph unicode=";" horiz-adv-x="671" d="M164 -221l110 473h222l-170 -473h-162zM264 874v252h244v-252h-244z" />
<glyph unicode="&#x3c;" d="M102 471v188l873 385l98 -167l-756 -312l756 -311l-98 -168z" />
<glyph unicode="=" d="M102 268v195h971v-195h-971zM102 672v194h971v-194h-971z" />
<glyph unicode="&#x3e;" d="M102 254l756 311l-756 312l99 167l872 -385v-188l-872 -385z" />
<glyph unicode="?" horiz-adv-x="993" d="M72 1352l90 -162q3 2 24.5 12.5t26 12.5t24.5 11t27.5 11.5t26.5 9.5t30.5 9.5t30.5 7t35 6t36.5 3t41.5 1.5q96 0 156.5 -40.5t60.5 -107.5q0 -45 -25 -89.5t-63 -80.5t-82.5 -79.5t-84 -86.5t-67.5 -101.5t-32 -125t22 -157.5h174q-21 56 -22 104.5t15.5 87t43.5 73 t62 66.5t71.5 62.5t72 65.5t63 72.5t44.5 86t17 102.5q0 151 -118 241.5t-314 90.5q-82 0 -159 -17.5t-122.5 -37t-105.5 -51.5zM322 0v238h229v-238h-229z" />
<glyph unicode="@" horiz-adv-x="1761" d="M123 573q0 417 227 661.5t613 244.5q304 0 489.5 -181.5t185.5 -478.5q0 -264 -109.5 -406.5t-295.5 -142.5q-159 0 -213 119h-4q-83 -116 -221 -119q-114 0 -184 87.5t-70 230.5q0 211 120.5 340t315.5 129q108 0 223 -49q-6 -56 -22 -201.5t-23 -224.5 q-13 -146 111 -146q75 0 132.5 99.5t57.5 283.5q0 213 -135.5 346t-357.5 133q-301 0 -478.5 -197t-177.5 -528q0 -256 155.5 -408.5t420.5 -152.5q98 0 197 21.5t165 56.5l88 -158q-82 -46 -203 -73t-247 -27q-350 0 -555 200t-205 541zM707 592q0 -71 28.5 -114.5 t83.5 -43.5q90 0 170 103l39 362q-24 6 -61 6q-118 0 -189 -86.5t-71 -226.5z" />
<glyph unicode="A" horiz-adv-x="1376" d="M31 0l544 1434h226l545 -1434h-218l-165 432l-277 -190h-4l-279 192l-165 -434h-207zM467 602l215 -153h4l213 153l-37 96q-44 116 -88 249.5t-66 208.5l-22 75h-4q-78 -270 -178 -533z" />
<glyph unicode="B" horiz-adv-x="1222" d="M184 0v1434h371q235 0 355 -98t120 -265q0 -88 -50 -162.5t-128 -124.5v-4q258 -95 258 -356q0 -214 -128.5 -319t-389.5 -105h-408zM391 188h207q297 0 297 234q0 233 -297 233h-207v-467zM391 836h150q137 0 207.5 51.5t70.5 152.5q0 205 -258 205h-170v-409z" />
<glyph unicode="C" horiz-adv-x="1361" d="M102 717q0 220 92.5 388t264 260.5t397.5 92.5q134 0 244.5 -29t179.5 -65l-94 -162q-137 60 -324 60q-244 0 -393.5 -151.5t-149.5 -393.5t149.5 -393.5t393.5 -151.5q190 0 324 59l94 -161q-185 -95 -418 -95q-342 0 -551 204.5t-209 537.5z" />
<glyph unicode="D" horiz-adv-x="1486" d="M184 0v1434h498q331 0 516.5 -189t185.5 -526q0 -340 -185 -529.5t-517 -189.5h-498zM397 193h285q230 0 358.5 138.5t128.5 387.5q0 246 -128.5 384t-358.5 138h-285v-1048z" />
<glyph unicode="E" horiz-adv-x="1361" d="M102 717q0 333 209 537t551 204q235 0 418 -94l-94 -162q-137 60 -324 60q-212 0 -354 -116t-178 -310h796v-191h-802q22 -214 168 -343.5t370 -129.5q190 0 324 59l94 -161q-185 -95 -418 -95q-342 0 -551 204.5t-209 537.5z" />
<glyph unicode="F" horiz-adv-x="1054" d="M184 0v1434h779v-191h-568v-430h504v-188h-504v-625h-211z" />
<glyph unicode="G" horiz-adv-x="1454" d="M102 717q0 333 211.5 537t558.5 204q235 0 418 -94l-90 -164q-141 62 -328 62q-249 0 -401 -149.5t-152 -395.5t152 -395.5t401 -149.5q128 0 230 25v370h-309v187h507v-684q-69 -35 -182.5 -65t-245.5 -30q-347 0 -558.5 204.5t-211.5 537.5z" />
<glyph unicode="H" horiz-adv-x="1544" d="M184 0v1434h213v-598h750v598h213v-1434h-213v645h-750v-645h-213z" />
<glyph unicode="I" horiz-adv-x="897" d="M113 0v174h231v1086h-231v174h671v-174h-231v-1086h231v-174h-671z" />
<glyph unicode="J" horiz-adv-x="761" d="M20 10l78 172q30 -10 92 -10q105 0 155 52t50 161v1049h213v-1059q0 -197 -101.5 -298.5t-297.5 -101.5q-121 0 -189 35z" />
<glyph unicode="K" horiz-adv-x="1286" d="M184 0v1434h213v-615l549 615h256l-602 -674l676 -760h-268l-611 684v-684h-213z" />
<glyph unicode="L" horiz-adv-x="1001" d="M184 0v1434h213v-1244h533v-190h-746z" />
<glyph unicode="M" horiz-adv-x="1830" d="M184 0v1434h209l-4 -185l529 -676l522 672l-4 189h211v-1434h-211v502q0 123 1.5 233t2.5 159l2 48h-4q-98 -145 -252 -338l-191 -246h-159l-199 254q-68 86 -129.5 168.5t-89.5 121.5l-27 40h-4q6 -165 6 -440v-502h-209z" />
<glyph unicode="N" horiz-adv-x="1669" d="M184 0v1434h207l-2 -185l602 -544q83 -75 154 -143.5t101 -99.5l30 -32h4q-4 149 -4 451v553h209v-1434h-209l2 178l-590 529q-83 75 -157 146t-107 105l-33 33h-4q4 -148 4 -450v-541h-207z" />
<glyph unicode="O" horiz-adv-x="1619" d="M102 717q0 333 195 537t514 204q318 0 512.5 -204t194.5 -537t-194.5 -537.5t-512.5 -204.5q-319 0 -514 204.5t-195 537.5zM319 717q0 -246 135.5 -395.5t356.5 -149.5q220 0 354.5 149.5t134.5 395.5t-134.5 395.5t-354.5 149.5q-221 0 -356.5 -149.5t-135.5 -395.5z " />
<glyph unicode="P" horiz-adv-x="1155" d="M184 0v1434h389q228 0 356 -121.5t128 -337.5q0 -215 -148.5 -336t-410.5 -121h-105v-518h-209zM393 705h156q141 0 221 72t80 198t-77.5 196t-215.5 70h-164v-536z" />
<glyph unicode="Q" horiz-adv-x="1646" d="M102 717q0 333 192 537t505 204t504.5 -204t191.5 -537q0 -176 -56.5 -319.5t-160.5 -241.5q103 -112 287 -174l-101 -183q-182 68 -334 250q-151 -74 -331 -74q-313 0 -505 204.5t-192 537.5zM319 717q0 -246 132 -395.5t348 -149.5q217 0 349 149.5t132 395.5 t-132 395.5t-349 149.5q-216 0 -348 -149.5t-132 -395.5z" />
<glyph unicode="R" horiz-adv-x="1218" d="M184 0v1434h389q227 0 360.5 -118t133.5 -315q0 -146 -77 -253.5t-208 -163.5l426 -584h-243l-394 532h-178v-532h-209zM393 709h156q142 0 226.5 72t84.5 194t-83 194t-220 72h-164v-532z" />
<glyph unicode="S" horiz-adv-x="1091" d="M102 70l97 166q66 -32 151 -52t160 -20q125 0 196.5 54t73.5 147q0 49 -21.5 90.5t-59 73t-86 60t-102 56t-107 57t-102 66.5t-86 80.5t-59.5 103.5t-22 131q0 169 121.5 272t323.5 103q95 0 192 -21t168 -59l-92 -157q-135 53 -273 53q-106 0 -168.5 -52.5t-62.5 -134.5 q0 -46 22 -85t59.5 -69t86 -57t101.5 -54t106.5 -55.5t102 -65.5t86 -80.5t59.5 -104t22 -131.5q0 -197 -130 -303.5t-355 -106.5q-115 0 -223.5 25.5t-178.5 69.5z" />
<glyph unicode="T" horiz-adv-x="1191" d="M41 1243v191h1110v-191h-449v-1243h-213v1243h-448z" />
<glyph unicode="U" horiz-adv-x="1511" d="M174 635v799h213v-758q0 -243 95.5 -373.5t273.5 -130.5t273 130.5t95 373.5v758h213v-799q0 -318 -150 -489t-431 -171t-431.5 171t-150.5 489z" />
<glyph unicode="V" horiz-adv-x="1380" d="M31 1434h225l270 -713q41 -111 82.5 -238t62.5 -199l21 -71h4q74 258 168 508l273 713h213l-545 -1434h-230z" />
<glyph unicode="W" horiz-adv-x="2156" d="M31 1434h215l246 -713q36 -104 74 -231t58 -202l21 -75h4q74 275 156 508l174 500l-86 213h223l246 -713q36 -104 74.5 -231t59.5 -202l20 -75h4q73 275 153 508l250 713h203l-504 -1434h-217l-164 465q-40 116 -80 246.5t-60 202.5l-20 73h-4q-70 -263 -162 -522 l-163 -465h-217z" />
<glyph unicode="X" horiz-adv-x="1302" d="M31 0l483 735l-455 699h242l354 -545h4l357 545h231l-459 -695l484 -739h-242l-381 588h-4l-381 -588h-233z" />
<glyph unicode="Y" horiz-adv-x="1220" d="M31 1434h229l162 -310q63 -121 110.5 -218.5t63.5 -135.5l16 -37h4q56 120 195 393l160 308h219l-475 -908v-526h-211v530z" />
<glyph unicode="Z" horiz-adv-x="1206" d="M86 0v197l772 1042l-2 4h-731v191h975v-197l-768 -1042l2 -5h784v-190h-1032z" />
<glyph unicode="[" horiz-adv-x="712" d="M164 -287v1823h487v-178h-293v-1467h293v-178h-487z" />
<glyph unicode="\" horiz-adv-x="884" d="M102 1487l166 96l514 -1651l-166 -98z" />
<glyph unicode="]" horiz-adv-x="712" d="M61 -109h293v1467h-293v178h488v-1823h-488v178z" />
<glyph unicode="_" horiz-adv-x="1257" d="M164 -76h930v-184h-930v184z" />
<glyph unicode="a" horiz-adv-x="1193" d="M102 319q0 82 30 148t78.5 108.5t114.5 71.5t134.5 41t140.5 12q140 0 238 -26q-1 80 -12 130t-41.5 89.5t-88 56.5t-147.5 17q-73 0 -163.5 -20t-137.5 -42l-84 148q47 32 165.5 65t243.5 33q231 0 348 -108t117 -357v-686h-186v162h-4q-175 -187 -404 -187 q-158 0 -250 96.5t-92 247.5zM303 328q0 -77 48.5 -121.5t140.5 -44.5q102 0 192 55.5t154 130.5v166q-76 27 -191 27q-176 0 -260 -60t-84 -153z" />
<glyph unicode="b" horiz-adv-x="1228" d="M164 39v1517h205v-477l4 -2q115 74 268 74q245 0 375.5 -154t130.5 -432q0 -267 -156 -428.5t-430 -161.5q-123 0 -229 19.5t-168 44.5zM369 190q82 -30 192 -30q180 0 280.5 112.5t100.5 292.5q0 185 -86.5 293.5t-243.5 108.5q-152 0 -243 -74v-703z" />
<glyph unicode="c" horiz-adv-x="1073" d="M82 561q0 269 158.5 429.5t435.5 160.5q169 0 313 -80l-84 -147q-85 43 -229 43q-185 0 -287 -110t-102 -296q0 -184 102 -292.5t287 -108.5q140 0 225 43l84 -148q-144 -80 -309 -80q-277 0 -435.5 159.5t-158.5 426.5z" />
<glyph unicode="d" horiz-adv-x="1239" d="M82 567q0 173 69 307t188.5 205.5t268.5 71.5q151 0 258 -64l4 3v466h205v-1556h-186v125h-4q-143 -150 -344 -150q-205 0 -332 164.5t-127 427.5zM287 567q0 -179 82.5 -293t228.5 -114q92 0 160.5 41t111.5 98v604q-83 64 -229 64q-167 0 -260.5 -109.5t-93.5 -290.5z " />
<glyph unicode="e" horiz-adv-x="1171" d="M82 561q0 261 144.5 425.5t375.5 164.5q222 0 343.5 -152t121.5 -432v-57h-788q14 -164 114 -257t279 -93q86 0 173 19t128 42l84 -147q-49 -37 -151.5 -68t-246.5 -31q-189 0 -320.5 75.5t-194 205.5t-62.5 305zM287 674l583 8q-3 132 -75 208.5t-193 76.5 q-125 0 -208.5 -78.5t-106.5 -214.5z" />
<glyph unicode="f" horiz-adv-x="741" d="M35 958v144l184 24v58q0 165 117.5 278t304.5 113q130 0 254 -55l-88 -154q-65 29 -154 29q-121 0 -175 -56.5t-54 -164.5v-48h287v-168h-287v-958h-205v958h-184z" />
<glyph unicode="g" horiz-adv-x="1228" d="M82 563q0 270 165.5 429t454.5 159q107 0 205 -19.5t158 -48.5v-1083q0 -202 -135 -320t-373 -118q-149 0 -271 35.5t-184 78.5l86 150q61 -33 153 -58.5t187 -25.5q180 0 256 66t76 192v47l-4 2q-120 -74 -268 -74q-233 0 -369.5 159.5t-136.5 428.5zM287 563 q0 -181 90 -292t239 -111q147 0 244 71v730q-62 16 -145 16q-201 0 -314.5 -112.5t-113.5 -301.5z" />
<glyph unicode="h" horiz-adv-x="1282" d="M164 0v1556h205v-589l4 -2q82 85 169.5 135.5t200.5 50.5q189 0 286 -120.5t97 -354.5v-676h-204v676q0 142 -52.5 212t-162.5 70q-99 0 -194 -61.5t-144 -138.5v-758h-205z" />
<glyph unicode="i" horiz-adv-x="540" d="M164 1329v227h213v-227h-213zM168 0v1126h205v-1126h-205z" />
<glyph unicode="j" horiz-adv-x="581" d="M-123 -403l88 153q36 -8 82 -8q99 0 130.5 42.5t31.5 137.5v1204h205v-1214q0 -165 -91.5 -257.5t-259.5 -92.5q-121 0 -186 35zM205 1329v227h213v-227h-213z" />
<glyph unicode="k" horiz-adv-x="1099" d="M164 0v1556h205v-907l438 477h240l-488 -520l514 -606h-239l-465 559v-559h-205z" />
<glyph unicode="l" horiz-adv-x="532" d="M164 0v1556h205v-1556h-205z" />
<glyph unicode="m" horiz-adv-x="2002" d="M164 0v1126h190v-168l4 -2q81 88 170.5 141.5t206.5 53.5q254 0 334 -223h4q42 47 77 80t86 69t111.5 55t127.5 19q372 0 372 -475v-676h-205v676q0 144 -48 213t-156 69q-98 0 -189 -61t-141 -139v-758h-205v676q0 144 -48.5 213t-156.5 69q-98 0 -188.5 -61 t-140.5 -139v-758h-205z" />
<glyph unicode="n" horiz-adv-x="1282" d="M164 0v1126h190v-170l4 -2q84 89 176 143t209 54q189 0 286 -120.5t97 -354.5v-676h-204v676q0 142 -52.5 212t-162.5 70q-99 0 -194 -61.5t-144 -138.5v-758h-205z" />
<glyph unicode="o" horiz-adv-x="1247" d="M82 563q0 264 149.5 426t393.5 162q243 0 391.5 -162t148.5 -426t-148.5 -426t-391.5 -162q-244 0 -393.5 162t-149.5 426zM287 563q0 -182 93 -292.5t245 -110.5q151 0 243.5 111t92.5 292t-92.5 292.5t-243.5 111.5q-152 0 -245 -111t-93 -293z" />
<glyph unicode="p" horiz-adv-x="1239" d="M164 -430v1556h190v-122l4 -3q143 150 340 150q217 0 338 -152t121 -426q0 -265 -148 -431.5t-378 -166.5q-151 0 -258 64l-4 -2v-467h-205zM369 223q82 -63 229 -63q166 0 260 115t94 298q0 185 -82.5 289.5t-228.5 104.5q-92 0 -160.5 -41t-111.5 -99v-604z" />
<glyph unicode="q" horiz-adv-x="1228" d="M82 563q0 270 165.5 429t454.5 159q107 0 205 -19.5t158 -48.5v-1513h-205v477l-4 2q-115 -74 -268 -74q-233 0 -369.5 159.5t-136.5 428.5zM287 563q0 -181 90 -292t239 -111q147 0 244 71v730q-62 16 -145 16q-201 0 -314.5 -112.5t-113.5 -301.5z" />
<glyph unicode="r" horiz-adv-x="821" d="M164 0v1126h186v-206l4 -2q38 47 71 80.5t80 68.5t103 53.5t119 18.5q37 0 78 -6l-84 -197q-86 0 -176.5 -40.5t-145.5 -109.5q-30 -38 -30 -96v-690h-205z" />
<glyph unicode="s" horiz-adv-x="970" d="M82 74l92 159q48 -22 83 -35.5t92.5 -25.5t115.5 -12q110 0 164.5 37.5t54.5 99.5q0 45 -30.5 79.5t-79.5 58t-107.5 46.5t-117.5 53t-108 68t-79.5 100.5t-30.5 143.5q0 137 103.5 221t275.5 84q80 0 170.5 -21.5t157.5 -56.5l-88 -151q-66 26 -119.5 38.5t-124.5 12.5 q-90 0 -135 -37.5t-45 -97.5q0 -44 30.5 -78t79.5 -58.5t107.5 -48t117.5 -54.5t108 -70t79.5 -101.5t30.5 -142.5q0 -143 -112 -226.5t-306 -83.5q-100 0 -205 27.5t-174 71.5z" />
<glyph unicode="t" horiz-adv-x="821" d="M35 958v144l184 24v263h205v-263h328v-168h-328v-622q0 -98 35 -139t125 -41q30 0 67 6.5t54 15.5l86 -147q-26 -25 -98.5 -40.5t-141.5 -15.5q-332 0 -332 371v612h-184z" />
<glyph unicode="u" horiz-adv-x="1265" d="M156 451v675h204v-675q0 -145 46 -214t153 -69q98 0 193 62t145 139v757h205v-1126h-191v170l-4 2q-84 -89 -176 -143t-209 -54q-366 0 -366 476z" />
<glyph unicode="v" horiz-adv-x="1120" d="M20 1126h211l328 -960h4l334 960h203l-400 -1126h-288z" />
<glyph unicode="w" horiz-adv-x="1841" d="M20 1126h207l289 -960h4l289 960h225l289 -960h4l295 960h199l-361 -1126h-280l-160 514q-28 90 -53 192t-36 159l-11 57h-5q-34 -205 -102 -408l-160 -514h-280z" />
<glyph unicode="x" horiz-adv-x="1097" d="M27 0l399 578l-379 548h242l262 -409h4l266 409h230l-375 -548l395 -578h-240l-280 436h-4l-287 -436h-233z" />
<glyph unicode="y" horiz-adv-x="1112" d="M20 1126h207l328 -960h4l334 960h199l-400 -1126l-65 -182q-47 -132 -133 -194t-220 -62q-121 0 -186 35l74 155q27 -10 94 -10q85 0 127.5 34.5t77.5 114.5l41 109h-90z" />
<glyph unicode="z" horiz-adv-x="1026" d="M78 0v178l610 774l-2 4l-561 -2v172h799v-178l-607 -772l2 -4h621v-172h-862z" />
<glyph unicode="{" horiz-adv-x="724" d="M123 543v164q70 0 105 51t26 139l-29 242q-19 188 70.5 292.5t275.5 104.5h93v-178h-93q-96 0 -134.5 -51.5t-26.5 -167.5l32 -310q10 -92 -38 -145t-121 -53v-13q72 -3 120.5 -56.5t38.5 -141.5l-32 -309q-12 -116 26.5 -168t134.5 -52h93v-178h-93q-186 0 -275.5 105 t-70.5 293l29 241q11 88 -24 139.5t-107 51.5z" />
<glyph unicode="|" horiz-adv-x="538" d="M164 -410v1946h211v-1946h-211z" />
<glyph unicode="}" horiz-adv-x="724" d="M61 -109h93q96 0 134.5 52t26.5 168l-32 309q-10 88 38.5 141.5t120.5 56.5v13q-73 0 -121 53t-38 145l32 310q12 116 -26.5 167.5t-134.5 51.5h-93v178h93q186 0 275.5 -104.5t70.5 -292.5l-29 -242q-9 -88 26 -139t105 -51v-164q-72 0 -107 -51.5t-24 -139.5l29 -241 q19 -188 -70.5 -293t-275.5 -105h-93v178z" />
<glyph unicode="~" d="M102 655q97 205 285 205q69 0 142 -27.5t134.5 -55t104.5 -27.5q51 0 91.5 27.5t55.5 72.5l158 -94q-96 -199 -285 -199q-55 0 -113 17.5t-98.5 38t-87 38t-81.5 17.5q-50 0 -91.5 -30.5t-56.5 -76.5z" />
<glyph unicode="&#xa1;" horiz-adv-x="645" d="M205 -307l28 973h179l28 -973h-235zM209 889v237h227v-237h-227z" />
<glyph unicode="&#xa2;" horiz-adv-x="1126" d="M109 758q0 225 122 375.5t332 185.5l-4 197h182l-4 -189q158 -10 273 -74l-84 -151q-100 41 -242 41q-163 0 -265 -107.5t-102 -277.5t100.5 -276.5t266.5 -106.5q146 0 242 39l84 -150q-110 -66 -287 -76l4 -188h-184l4 201q-202 40 -320 188.5t-118 368.5z" />
<glyph unicode="&#xa3;" horiz-adv-x="1126" d="M104 657v162h164v252q0 183 120.5 285t334.5 102q180 0 350 -84l-88 -160q-121 56 -266 56q-116 0 -182 -61t-66 -162v-228h395v-162h-395v-153q0 -104 -36 -186t-99 -123l2 -5h698v-190h-915v190q147 85 147 318v149h-164z" />
<glyph unicode="&#xa4;" horiz-adv-x="1126" d="M49 311l158 154q-64 109 -64 256t64 256l-158 153l133 134l156 -160q94 51 217 51q130 0 227 -57l162 166l133 -134l-170 -163q60 -105 60 -246t-60 -246l170 -164l-133 -133l-162 166q-97 -57 -227 -57q-123 0 -217 51l-156 -160zM311 721q0 -129 65.5 -204t178.5 -75 t178.5 75t65.5 204t-65.5 203.5t-178.5 74.5q-109 0 -176.5 -75.5t-67.5 -202.5z" />
<glyph unicode="&#xa5;" horiz-adv-x="1126" d="M10 1434h219l338 -703h2l334 703h213l-385 -770l2 -5h240v-145h-307v-131h307v-145h-307v-238h-207v238h-299v145h299v131h-299v145h233l2 5z" />
<glyph unicode="&#xa6;" horiz-adv-x="538" d="M164 338h211v-748h-211v748zM164 788v748h211v-748h-211z" />
<glyph unicode="&#xa7;" horiz-adv-x="1046" d="M123 -131l92 160q49 -23 83.5 -36t94.5 -25.5t123 -12.5q117 0 173 37.5t56 99.5q0 45 -31.5 80.5t-82 60.5t-112 49.5t-122.5 55t-111.5 68.5t-82 98t-31.5 137q0 163 141 246v4q-141 95 -141 262q0 138 104.5 221.5t284.5 83.5q87 0 178.5 -21.5t159.5 -56.5l-88 -151 q-66 26 -121 38.5t-133 12.5q-97 0 -143.5 -37.5t-46.5 -97.5q0 -39 24.5 -71t65 -54.5t92 -46.5t105 -45.5t105 -53.5t92 -68.5t65 -91.5t24.5 -122q0 -164 -145 -246v-4q145 -97 145 -262q0 -143 -113.5 -226t-314.5 -83q-107 0 -213.5 27t-175.5 71zM367 651 q0 -24 7.5 -45.5t17.5 -38t31 -33t36 -27.5t46 -26t48.5 -22.5t54.5 -22.5q69 17 103 58t34 98q0 17 -4.5 32.5t-10 27.5t-18.5 25l-22 22t-29.5 20.5t-31.5 18t-36.5 18t-37 16t-41.5 16.5t-41 17q-51 -18 -78.5 -61.5t-27.5 -92.5z" />
<glyph unicode="&#xa9;" horiz-adv-x="1765" d="M164 686q0 318 197.5 513.5t521.5 195.5t521.5 -195.5t197.5 -513.5q0 -320 -197.5 -515.5t-521.5 -195.5t-521.5 195.5t-197.5 515.5zM328 686q0 -252 152.5 -405.5t402.5 -153.5t402.5 153.5t152.5 405.5q0 251 -152.5 404t-402.5 153t-402.5 -153t-152.5 -404z M516 686q0 169 107 272t280 103q137 0 221 -49l-51 -123q-74 31 -170 31q-104 0 -168.5 -65t-64.5 -169q0 -103 64.5 -166t168.5 -63q115 0 170 35l51 -130q-30 -19 -88 -35t-133 -16q-173 0 -280 103t-107 272z" />
<glyph unicode="&#xab;" horiz-adv-x="1155" d="M61 563l361 520l174 -100l-303 -420l303 -420l-174 -100zM539 563l360 500l174 -100l-303 -400l303 -399l-174 -101z" />
<glyph unicode="&#xac;" d="M102 569v199h971v-518h-205v319h-766z" />
<glyph unicode="&#xad;" horiz-adv-x="819" d="M82 473v184h655v-184h-655z" />
<glyph unicode="&#xae;" horiz-adv-x="1441" d="M168 997q0 242 150.5 389.5t396.5 147.5t395.5 -147.5t149.5 -389.5q0 -243 -149.5 -390.5t-395.5 -147.5t-396.5 147.5t-150.5 390.5zM283 997q0 -197 118.5 -316.5t313.5 -119.5t313.5 119.5t118.5 316.5q0 195 -118.5 315t-313.5 120t-313.5 -120t-118.5 -315z M526 715v581h174q104 0 167 -50.5t63 -133.5q0 -57 -29 -102.5t-80 -71.5l168 -223h-127l-141 192h-86v-192h-109zM635 1001h53q61 0 94 26t33 75q0 47 -33 73.5t-92 26.5h-55v-201z" />
<glyph unicode="&#xb0;" horiz-adv-x="563" d="M20 1188q0 122 72.5 196t190.5 74q117 0 188.5 -74t71.5 -196q0 -120 -71.5 -193t-188.5 -73q-119 0 -191 73t-72 193zM152 1188q0 -63 36 -102t95 -39q60 0 95.5 39t35.5 102q0 65 -35.5 104t-95.5 39q-59 0 -95 -39.5t-36 -103.5z" />
<glyph unicode="&#xb1;" d="M102 0v174h971v-174h-971zM102 621v190l392 -4l-5 319h197l-4 -319l391 4v-190l-391 4l4 -320h-197l5 320z" />
<glyph unicode="&#xb6;" horiz-adv-x="1083" d="M61 977q0 209 133 333t347 124h368v-1434h-192l-4 1247h-172v-725q-214 0 -347 124t-133 331z" />
<glyph unicode="&#xb7;" horiz-adv-x="571" d="M164 438v252h244v-252h-244z" />
<glyph unicode="&#xbb;" horiz-adv-x="1155" d="M82 164l303 399l-303 400l174 100l360 -500l-360 -500zM559 143l303 420l-303 420l174 100l361 -520l-361 -520z" />
<glyph unicode="&#xbf;" horiz-adv-x="942" d="M102 0q0 -151 118 -241.5t315 -90.5q82 0 159 18t122 37.5t106 51.5l-91 162q-3 -2 -24.5 -12.5t-26 -12.5t-24.5 -11t-27.5 -11.5t-26.5 -9.5t-30.5 -9.5t-30.5 -7t-35 -6t-36.5 -3t-41.5 -1.5q-96 0 -156.5 40t-60.5 107q0 40 19.5 79.5t50.5 71.5t69 69t75 72t69 80.5 t51 95t20.5 114.5t-22.5 139h-174q25 -61 22 -116t-24 -94.5t-56.5 -80t-76 -72.5t-82 -72t-75 -79t-54.5 -93t-21 -114zM442 889v237h230v-237h-230z" />
<glyph unicode="&#xc0;" horiz-adv-x="1376" d="M31 0l544 1434h226l545 -1434h-218l-165 432l-277 -190h-4l-279 192l-165 -434h-207zM313 1749l93 160l456 -230l-76 -131zM467 602l215 -153h4l213 153l-37 96q-44 116 -88 249.5t-66 208.5l-22 75h-4q-78 -270 -178 -533z" />
<glyph unicode="&#xc1;" horiz-adv-x="1376" d="M31 0l544 1434h226l545 -1434h-218l-165 432l-277 -190h-4l-279 192l-165 -434h-207zM467 602l215 -153h4l213 153l-37 96q-44 116 -88 249.5t-66 208.5l-22 75h-4q-78 -270 -178 -533zM514 1679l457 230l92 -160l-473 -201z" />
<glyph unicode="&#xc2;" horiz-adv-x="1376" d="M31 0l544 1434h226l545 -1434h-218l-165 432l-277 -190h-4l-279 192l-165 -434h-207zM344 1686l344 196l344 -196l-74 -127l-270 149l-270 -149zM467 602l215 -153h4l213 153l-37 96q-44 116 -88 249.5t-66 208.5l-22 75h-4q-78 -270 -178 -533z" />
<glyph unicode="&#xc3;" horiz-adv-x="1376" d="M31 0l544 1434h226l545 -1434h-218l-165 432l-277 -190h-4l-279 192l-165 -434h-207zM375 1659q39 82 85.5 126t112.5 44q36 0 72.5 -15.5t61.5 -33.5t53 -33.5t49 -15.5q64 0 96 90l119 -70q-40 -81 -86.5 -125.5t-112.5 -44.5q-45 0 -90.5 24.5t-82.5 49t-62 24.5 q-64 0 -96 -90zM467 602l215 -153h4l213 153l-37 96q-44 116 -88 249.5t-66 208.5l-22 75h-4q-78 -270 -178 -533z" />
<glyph unicode="&#xc4;" horiz-adv-x="1376" d="M31 0l544 1434h226l545 -1434h-218l-165 432l-277 -190h-4l-279 192l-165 -434h-207zM348 1577v231h230v-231h-230zM467 602l215 -153h4l213 153l-37 96q-44 116 -88 249.5t-66 208.5l-22 75h-4q-78 -270 -178 -533zM799 1577v231h229v-231h-229z" />
<glyph unicode="&#xc5;" horiz-adv-x="1376" d="M31 0l524 1378q-63 51 -63 146q0 86 54.5 138t143.5 52t143 -52t54 -138q0 -96 -64 -148l523 -1376h-218l-165 432l-277 -190h-4l-279 192l-165 -434h-207zM467 602l215 -153h4l213 153l-37 96q-44 116 -88 249.5t-66 208.5l-22 75h-4q-78 -270 -178 -533zM594 1524 q0 -40 26.5 -65t69.5 -25q42 0 68 25t26 65t-25.5 64t-68.5 24t-69.5 -24t-26.5 -64z" />
<glyph unicode="&#xc6;" horiz-adv-x="2201" d="M10 0l850 1434h303v-70q0 -17 -1 -40.5t-2.5 -53.5t-2.5 -47l4 -2q185 237 541 237q235 0 418 -94l-95 -162q-137 60 -323 60q-212 0 -354.5 -116t-178.5 -310h797v-191h-803q22 -214 168.5 -343.5t370.5 -129.5q189 0 323 59l95 -161q-185 -95 -418 -95q-351 0 -537 234 l-4 -2q8 -98 8 -137v-70h-186v362h-534l-216 -362h-223zM559 547h424v715h-4z" />
<glyph unicode="&#xc7;" horiz-adv-x="1361" d="M102 717q0 220 92.5 388t264 260.5t397.5 92.5q134 0 244.5 -29t179.5 -65l-94 -162q-137 60 -324 60q-244 0 -393.5 -151.5t-149.5 -393.5t149.5 -393.5t393.5 -151.5q190 0 324 59l94 -161q-60 -32 -157.5 -61t-215.5 -34q54 -64 54 -141q0 -133 -230 -227l-80 139 q74 35 105.5 64.5t31.5 80.5q0 33 -30 91q-299 31 -477.5 230t-178.5 505z" />
<glyph unicode="&#xc8;" horiz-adv-x="1361" d="M102 717q0 333 209 537t551 204q235 0 418 -94l-94 -162q-137 60 -324 60q-212 0 -354 -116t-178 -310h796v-191h-802q22 -214 168 -343.5t370 -129.5q190 0 324 59l94 -161q-185 -95 -418 -95q-342 0 -551 204.5t-209 537.5zM432 1749l92 160l457 -230l-76 -131z" />
<glyph unicode="&#xc9;" horiz-adv-x="1361" d="M102 717q0 333 209 537t551 204q235 0 418 -94l-94 -162q-137 60 -324 60q-212 0 -354 -116t-178 -310h796v-191h-802q22 -214 168 -343.5t370 -129.5q190 0 324 59l94 -161q-185 -95 -418 -95q-342 0 -551 204.5t-209 537.5zM633 1679l457 230l92 -160l-473 -201z" />
<glyph unicode="&#xca;" horiz-adv-x="1361" d="M102 717q0 333 209 537t551 204q235 0 418 -94l-94 -162q-137 60 -324 60q-212 0 -354 -116t-178 -310h796v-191h-802q22 -214 168 -343.5t370 -129.5q190 0 324 59l94 -161q-185 -95 -418 -95q-342 0 -551 204.5t-209 537.5zM463 1686l344 196l344 -196l-74 -127 l-270 149l-270 -149z" />
<glyph unicode="&#xcb;" horiz-adv-x="1361" d="M102 717q0 333 209 537t551 204q235 0 418 -94l-94 -162q-137 60 -324 60q-212 0 -354 -116t-178 -310h796v-191h-802q22 -214 168 -343.5t370 -129.5q190 0 324 59l94 -161q-185 -95 -418 -95q-342 0 -551 204.5t-209 537.5zM467 1577v231h229v-231h-229zM918 1577v231 h229v-231h-229z" />
<glyph unicode="&#xcc;" horiz-adv-x="897" d="M74 1749l92 160l457 -230l-76 -131zM113 0v174h231v1086h-231v174h671v-174h-231v-1086h231v-174h-671z" />
<glyph unicode="&#xcd;" horiz-adv-x="897" d="M113 0v174h231v1086h-231v174h671v-174h-231v-1086h231v-174h-671zM274 1679l457 230l92 -160l-473 -201z" />
<glyph unicode="&#xce;" horiz-adv-x="897" d="M113 0v174h231v1086h-231v174h671v-174h-231v-1086h231v-174h-671zM117 1679l332 226l331 -226l-71 -125l-260 168l-261 -168z" />
<glyph unicode="&#xcf;" horiz-adv-x="897" d="M109 1577v231h229v-231h-229zM113 0v174h231v1086h-231v174h671v-174h-231v-1086h231v-174h-671zM559 1577v231h229v-231h-229z" />
<glyph unicode="&#xd0;" horiz-adv-x="1505" d="M31 653v172h172v609h497q331 0 517 -189t186 -526q0 -340 -185.5 -529.5t-517.5 -189.5h-497v653h-172zM416 193h284q230 0 359 138.5t129 387.5q0 246 -129 384t-359 138h-284v-416h334v-172h-334v-460z" />
<glyph unicode="&#xd1;" horiz-adv-x="1669" d="M184 0v1434h207l-2 -185l602 -544q83 -75 154 -143.5t101 -99.5l30 -32h4q-4 149 -4 451v553h209v-1434h-209l2 178l-590 529q-83 75 -157 146t-107 105l-33 33h-4q4 -148 4 -450v-541h-207zM530 1659q39 81 86 125.5t113 44.5q36 0 72.5 -15.5t61.5 -33.5t53 -33.5 t49 -15.5q64 0 96 90l119 -70q-40 -81 -86.5 -125.5t-112.5 -44.5q-36 0 -72.5 15.5t-61.5 33.5t-53 33.5t-49 15.5q-64 0 -96 -90z" />
<glyph unicode="&#xd2;" horiz-adv-x="1619" d="M102 717q0 333 195 537t514 204q318 0 512.5 -204t194.5 -537t-194.5 -537.5t-512.5 -204.5q-319 0 -514 204.5t-195 537.5zM319 717q0 -246 135.5 -395.5t356.5 -149.5q220 0 354.5 149.5t134.5 395.5t-134.5 395.5t-354.5 149.5q-221 0 -356.5 -149.5t-135.5 -395.5z M436 1749l92 160l457 -230l-76 -131z" />
<glyph unicode="&#xd3;" horiz-adv-x="1619" d="M102 717q0 333 195 537t514 204q318 0 512.5 -204t194.5 -537t-194.5 -537.5t-512.5 -204.5q-319 0 -514 204.5t-195 537.5zM319 717q0 -246 135.5 -395.5t356.5 -149.5q220 0 354.5 149.5t134.5 395.5t-134.5 395.5t-354.5 149.5q-221 0 -356.5 -149.5t-135.5 -395.5z M637 1679l457 230l92 -160l-473 -201z" />
<glyph unicode="&#xd4;" horiz-adv-x="1619" d="M102 717q0 333 195 537t514 204q318 0 512.5 -204t194.5 -537t-194.5 -537.5t-512.5 -204.5q-319 0 -514 204.5t-195 537.5zM319 717q0 -246 135.5 -395.5t356.5 -149.5q220 0 354.5 149.5t134.5 395.5t-134.5 395.5t-354.5 149.5q-221 0 -356.5 -149.5t-135.5 -395.5z M467 1686l344 196l344 -196l-74 -127l-270 149l-270 -149z" />
<glyph unicode="&#xd5;" horiz-adv-x="1619" d="M102 717q0 333 195 537t514 204q318 0 512.5 -204t194.5 -537t-194.5 -537.5t-512.5 -204.5q-319 0 -514 204.5t-195 537.5zM319 717q0 -246 135.5 -395.5t356.5 -149.5q220 0 354.5 149.5t134.5 395.5t-134.5 395.5t-354.5 149.5q-221 0 -356.5 -149.5t-135.5 -395.5z M498 1659q39 82 85.5 126t112.5 44q36 0 72.5 -15.5t61.5 -33.5t53 -33.5t49 -15.5q64 0 96 90l119 -70q-40 -81 -86.5 -125.5t-112.5 -44.5q-45 0 -90.5 24.5t-82.5 49t-62 24.5q-65 0 -97 -90z" />
<glyph unicode="&#xd6;" horiz-adv-x="1619" d="M102 717q0 333 195 537t514 204q318 0 512.5 -204t194.5 -537t-194.5 -537.5t-512.5 -204.5q-319 0 -514 204.5t-195 537.5zM319 717q0 -246 135.5 -395.5t356.5 -149.5q220 0 354.5 149.5t134.5 395.5t-134.5 395.5t-354.5 149.5q-221 0 -356.5 -149.5t-135.5 -395.5z M471 1577v231h229v-231h-229zM922 1577v231h229v-231h-229z" />
<glyph unicode="&#xd7;" d="M115 225l336 336l-336 334l133 135l340 -346l340 346l133 -135l-336 -334l336 -330l-133 -135l-340 340l-340 -346z" />
<glyph unicode="&#xd8;" horiz-adv-x="1619" d="M102 717q0 333 195 537t514 204q318 0 512.5 -204t194.5 -537t-194.5 -537.5t-512.5 -204.5q-319 0 -514 204.5t-195 537.5zM319 717q0 -174 74 -309l746 733q-130 121 -328 121q-221 0 -356.5 -149.5t-135.5 -395.5zM489 287q127 -115 322 -115q220 0 354.5 149.5 t134.5 395.5q0 171 -67 299z" />
<glyph unicode="&#xd9;" horiz-adv-x="1511" d="M174 635v799h213v-758q0 -243 95.5 -373.5t273.5 -130.5t273 130.5t95 373.5v758h213v-799q0 -318 -150 -489t-431 -171t-431.5 171t-150.5 489zM381 1749l92 160l457 -230l-76 -131z" />
<glyph unicode="&#xda;" horiz-adv-x="1511" d="M174 635v799h213v-758q0 -243 95.5 -373.5t273.5 -130.5t273 130.5t95 373.5v758h213v-799q0 -318 -150 -489t-431 -171t-431.5 171t-150.5 489zM582 1679l456 230l92 -160l-473 -201z" />
<glyph unicode="&#xdb;" horiz-adv-x="1511" d="M174 635v799h213v-758q0 -243 95.5 -373.5t273.5 -130.5t273 130.5t95 373.5v758h213v-799q0 -318 -150 -489t-431 -171t-431.5 171t-150.5 489zM412 1686l344 196l344 -196l-74 -127l-270 149l-271 -149z" />
<glyph unicode="&#xdc;" horiz-adv-x="1511" d="M174 635v799h213v-758q0 -243 95.5 -373.5t273.5 -130.5t273 130.5t95 373.5v758h213v-799q0 -318 -150 -489t-431 -171t-431.5 171t-150.5 489zM416 1577v231h229v-231h-229zM866 1577v231h230v-231h-230z" />
<glyph unicode="&#xdd;" horiz-adv-x="1220" d="M31 1434h229l162 -310q63 -121 110.5 -218.5t63.5 -135.5l16 -37h4q56 120 195 393l160 308h219l-475 -908v-526h-211v530zM440 1679l457 230l92 -160l-473 -201z" />
<glyph unicode="&#xde;" horiz-adv-x="1155" d="M184 0v1434h209v-234h180q228 0 356 -121.5t128 -337.5q0 -215 -148.5 -335.5t-410.5 -120.5h-105v-285h-209zM393 471h156q141 0 221 72t80 198t-77.5 196.5t-215.5 70.5h-164v-537z" />
<glyph unicode="&#xdf;" horiz-adv-x="1273" d="M164 0v1184q0 177 118 284t310 107q185 0 296 -89.5t111 -236.5q0 -56 -24 -105t-58.5 -85t-68.5 -69.5t-58 -72.5t-24 -79q0 -35 23 -67.5t59.5 -60t81 -57t89 -65.5t81 -78t59.5 -101.5t23 -129.5q0 -138 -90 -221t-246 -83q-101 0 -194 21.5t-150 56.5l96 158 q112 -51 229 -51q160 0 160 127q0 46 -23 84t-59.5 66.5t-81 56t-89 60t-81 70.5t-59.5 95t-23 127q0 61 23 111.5t56 84.5t66 64.5t56 66.5t23 76q0 63 -56 102.5t-147 39.5q-100 0 -161.5 -59.5t-61.5 -157.5v-1174h-205z" />
<glyph unicode="&#xe0;" horiz-adv-x="1193" d="M102 319q0 82 30 148t78.5 108.5t114.5 71.5t134.5 41t140.5 12q140 0 238 -26q-1 80 -12 130t-41.5 89.5t-88 56.5t-147.5 17q-73 0 -163.5 -20t-137.5 -42l-84 148q47 32 165.5 65t243.5 33q231 0 348 -108t117 -357v-686h-186v162h-4q-175 -187 -404 -187 q-158 0 -250 96.5t-92 247.5zM303 328q0 -77 48.5 -121.5t140.5 -44.5q102 0 192 55.5t154 130.5v166q-76 27 -191 27q-176 0 -260 -60t-84 -153zM305 1452l92 160l396 -205l-76 -131z" />
<glyph unicode="&#xe1;" horiz-adv-x="1193" d="M102 319q0 82 30 148t78.5 108.5t114.5 71.5t134.5 41t140.5 12q140 0 238 -26q-1 80 -12 130t-41.5 89.5t-88 56.5t-147.5 17q-73 0 -163.5 -20t-137.5 -42l-84 148q47 32 165.5 65t243.5 33q231 0 348 -108t117 -357v-686h-186v162h-4q-175 -187 -404 -187 q-158 0 -250 96.5t-92 247.5zM303 328q0 -77 48.5 -121.5t140.5 -44.5q102 0 192 55.5t154 130.5v166q-76 27 -191 27q-176 0 -260 -60t-84 -153zM391 1407l395 205l93 -160l-412 -176z" />
<glyph unicode="&#xe2;" horiz-adv-x="1193" d="M102 319q0 82 30 148t78.5 108.5t114.5 71.5t134.5 41t140.5 12q140 0 238 -26q-1 80 -12 130t-41.5 89.5t-88 56.5t-147.5 17q-73 0 -163.5 -20t-137.5 -42l-84 148q47 32 165.5 65t243.5 33q231 0 348 -108t117 -357v-686h-186v162h-4q-175 -187 -404 -187 q-158 0 -250 96.5t-92 247.5zM260 1372l332 225l332 -225l-72 -125l-260 168l-260 -168zM303 328q0 -77 48.5 -121.5t140.5 -44.5q102 0 192 55.5t154 130.5v166q-76 27 -191 27q-176 0 -260 -60t-84 -153z" />
<glyph unicode="&#xe3;" horiz-adv-x="1193" d="M102 319q0 82 30 148t78.5 108.5t114.5 71.5t134.5 41t140.5 12q140 0 238 -26q-1 80 -12 130t-41.5 89.5t-88 56.5t-147.5 17q-73 0 -163.5 -20t-137.5 -42l-84 148q47 32 165.5 65t243.5 33q231 0 348 -108t117 -357v-686h-186v162h-4q-175 -187 -404 -187 q-158 0 -250 96.5t-92 247.5zM266 1397q39 81 86 125.5t113 44.5q36 0 72.5 -15.5t61 -34t52.5 -34t49 -15.5q65 0 97 91l118 -70q-40 -81 -86.5 -125.5t-111.5 -44.5q-36 0 -72.5 15.5t-61.5 33.5t-53 33.5t-49 15.5q-64 0 -96 -90zM303 328q0 -77 48.5 -121.5t140.5 -44.5 q102 0 192 55.5t154 130.5v166q-76 27 -191 27q-176 0 -260 -60t-84 -153z" />
<glyph unicode="&#xe4;" horiz-adv-x="1228" d="M102 319q0 82 30 148t78.5 108.5t114.5 71.5t134.5 41t140.5 12q140 0 238 -26q-1 80 -12 130t-41.5 89.5t-88 56.5t-147.5 17q-73 0 -163.5 -20t-137.5 -42l-84 148q47 32 165.5 65t243.5 33q231 0 348 -108t117 -357v-686h-186v162h-4q-175 -187 -404 -187 q-158 0 -250 96.5t-92 247.5zM266 1337v228h213v-228h-213zM303 328q0 -77 48.5 -121.5t140.5 -44.5q102 0 192 55.5t154 130.5v166q-76 27 -191 27q-176 0 -260 -60t-84 -153zM705 1337v228h213v-228h-213z" />
<glyph unicode="&#xe5;" horiz-adv-x="1193" d="M102 319q0 82 30 148t78.5 108.5t114.5 71.5t134.5 41t140.5 12q140 0 238 -26q-1 80 -12 130t-41.5 89.5t-88 56.5t-147.5 17q-73 0 -163.5 -20t-137.5 -42l-84 148q47 32 165.5 65t243.5 33q231 0 348 -108t117 -357v-686h-186v162h-4q-175 -187 -404 -187 q-158 0 -250 96.5t-92 247.5zM303 328q0 -77 48.5 -121.5t140.5 -44.5q102 0 192 55.5t154 130.5v166q-76 27 -191 27q-176 0 -260 -60t-84 -153zM393 1438q0 86 54.5 138t144.5 52q89 0 142.5 -52t53.5 -138q0 -87 -53.5 -140t-142.5 -53t-144 53.5t-55 139.5zM504 1438 q0 -38 24 -61t64 -23q38 0 62 23t24 61q0 37 -24 59.5t-62 22.5q-40 0 -64 -22.5t-24 -59.5z" />
<glyph unicode="&#xe6;" horiz-adv-x="1912" d="M102 319q0 82 30 148t78.5 108.5t114.5 71.5t134.5 41t140.5 12q140 0 238 -26q-1 80 -12 130t-41.5 89.5t-88 56.5t-147.5 17q-73 0 -163.5 -20t-137.5 -42l-84 148q47 32 165.5 65t243.5 33q145 0 239.5 -43t143.5 -137h5q135 180 376 180q226 0 348.5 -151.5 t122.5 -432.5v-63h-798q19 -159 124 -251.5t273 -92.5q92 0 178.5 19t128.5 42l84 -147q-49 -37 -151 -68t-252 -31q-317 0 -463 228h-4q-107 -105 -231.5 -166.5t-252.5 -61.5q-158 0 -250 96.5t-92 247.5zM303 328q0 -77 48.5 -121.5t140.5 -44.5q102 0 192 55.5 t154 130.5v166q-76 27 -191 27q-176 0 -260 -60t-84 -153zM1018 676h594q0 134 -74 212.5t-201 78.5q-126 0 -210 -78t-109 -213z" />
<glyph unicode="&#xe7;" horiz-adv-x="1073" d="M82 561q0 269 158.5 429.5t435.5 160.5q169 0 313 -80l-84 -147q-85 43 -229 43q-185 0 -287 -110t-102 -296q0 -184 102 -292.5t287 -108.5q140 0 225 43l84 -148q-139 -77 -297 -80q53 -66 53 -141q0 -67 -59.5 -124.5t-169.5 -102.5l-80 139q74 35 105.5 64.5 t31.5 80.5q0 35 -34 97q-214 38 -333.5 190.5t-119.5 382.5z" />
<glyph unicode="&#xe8;" horiz-adv-x="1171" d="M82 561q0 261 144.5 425.5t375.5 164.5q222 0 343.5 -152t121.5 -432v-57h-788q14 -164 114 -257t279 -93q86 0 173 19t128 42l84 -147q-49 -37 -151.5 -68t-246.5 -31q-189 0 -320.5 75.5t-194 205.5t-62.5 305zM287 674l583 8q-3 132 -75 208.5t-193 76.5 q-125 0 -208.5 -78.5t-106.5 -214.5zM309 1452l92 160l396 -205l-76 -131z" />
<glyph unicode="&#xe9;" horiz-adv-x="1171" d="M82 561q0 261 144.5 425.5t375.5 164.5q222 0 343.5 -152t121.5 -432v-57h-788q14 -164 114 -257t279 -93q86 0 173 19t128 42l84 -147q-49 -37 -151.5 -68t-246.5 -31q-189 0 -320.5 75.5t-194 205.5t-62.5 305zM287 674l583 8q-3 132 -75 208.5t-193 76.5 q-125 0 -208.5 -78.5t-106.5 -214.5zM395 1407l396 205l92 -160l-412 -176z" />
<glyph unicode="&#xea;" horiz-adv-x="1171" d="M82 561q0 261 144.5 425.5t375.5 164.5q222 0 343.5 -152t121.5 -432v-57h-788q14 -164 114 -257t279 -93q86 0 173 19t128 42l84 -147q-49 -37 -151.5 -68t-246.5 -31q-189 0 -320.5 75.5t-194 205.5t-62.5 305zM264 1372l332 225l332 -225l-72 -125l-260 168l-260 -168 zM287 674l583 8q-3 132 -75 208.5t-193 76.5q-125 0 -208.5 -78.5t-106.5 -214.5z" />
<glyph unicode="&#xeb;" horiz-adv-x="1171" d="M82 561q0 261 144.5 425.5t375.5 164.5q222 0 343.5 -152t121.5 -432v-57h-788q14 -164 114 -257t279 -93q86 0 173 19t128 42l84 -147q-49 -37 -151.5 -68t-246.5 -31q-189 0 -320.5 75.5t-194 205.5t-62.5 305zM270 1337v228h213v-228h-213zM287 674l583 8 q-3 132 -75 208.5t-193 76.5q-125 0 -208.5 -78.5t-106.5 -214.5zM709 1337v228h213v-228h-213z" />
<glyph unicode="&#xec;" horiz-adv-x="532" d="M-20 1452l92 160l395 -205l-76 -131zM164 0v1126h205v-1126h-205z" />
<glyph unicode="&#xed;" horiz-adv-x="532" d="M66 1407l395 205l92 -160l-412 -176zM164 0v1126h205v-1126h-205z" />
<glyph unicode="&#xee;" horiz-adv-x="532" d="M-66 1372l332 225l332 -225l-72 -125l-260 168l-260 -168zM164 0v1126h205v-1126h-205z" />
<glyph unicode="&#xef;" horiz-adv-x="532" d="M-59 1337v228h213v-228h-213zM164 0v1126h205v-1126h-205zM379 1337v228h213v-228h-213z" />
<glyph unicode="&#xf0;" horiz-adv-x="1255" d="M82 541q0 255 145 410t379 155q210 0 328 -145l4 2q-65 190 -244 317l-190 -137l-74 100l152 109q-64 36 -144 67l76 131q127 -45 209 -96l174 127l72 -102l-140 -101q171 -138 258 -335.5t87 -424.5q0 -308 -147.5 -475.5t-399.5 -167.5q-248 0 -396.5 155t-148.5 411z M287 541q0 -167 94 -274t246 -107q151 0 244.5 107t93.5 274q0 168 -93.5 274.5t-244.5 106.5q-153 0 -246.5 -106.5t-93.5 -274.5z" />
<glyph unicode="&#xf1;" horiz-adv-x="1282" d="M164 0v1126h190v-170l4 -2q84 89 176 143t209 54q189 0 286 -120.5t97 -354.5v-676h-204v676q0 142 -52.5 212t-162.5 70q-99 0 -194 -61.5t-144 -138.5v-758h-205zM330 1397q39 82 85.5 126t112.5 44q36 0 72.5 -15.5t61.5 -34t53 -34t49 -15.5q64 0 96 91l119 -70 q-40 -81 -86.5 -125.5t-112.5 -44.5q-45 0 -90.5 24.5t-82.5 49t-62 24.5q-64 0 -96 -90z" />
<glyph unicode="&#xf2;" horiz-adv-x="1247" d="M82 563q0 264 149.5 426t393.5 162q243 0 391.5 -162t148.5 -426t-148.5 -426t-391.5 -162q-244 0 -393.5 162t-149.5 426zM287 563q0 -182 93 -292.5t245 -110.5q151 0 243.5 111t92.5 292t-92.5 292.5t-243.5 111.5q-152 0 -245 -111t-93 -293zM338 1452l92 160 l395 -205l-75 -131z" />
<glyph unicode="&#xf3;" horiz-adv-x="1247" d="M82 563q0 264 149.5 426t393.5 162q243 0 391.5 -162t148.5 -426t-148.5 -426t-391.5 -162q-244 0 -393.5 162t-149.5 426zM287 563q0 -182 93 -292.5t245 -110.5q151 0 243.5 111t92.5 292t-92.5 292.5t-243.5 111.5q-152 0 -245 -111t-93 -293zM424 1407l395 205 l92 -160l-411 -176z" />
<glyph unicode="&#xf4;" horiz-adv-x="1247" d="M82 563q0 264 149.5 426t393.5 162q243 0 391.5 -162t148.5 -426t-148.5 -426t-391.5 -162q-244 0 -393.5 162t-149.5 426zM287 563q0 -182 93 -292.5t245 -110.5q151 0 243.5 111t92.5 292t-92.5 292.5t-243.5 111.5q-152 0 -245 -111t-93 -293zM293 1372l332 225 l331 -225l-71 -125l-260 168l-260 -168z" />
<glyph unicode="&#xf5;" horiz-adv-x="1247" d="M82 563q0 264 149.5 426t393.5 162q243 0 391.5 -162t148.5 -426t-148.5 -426t-391.5 -162q-244 0 -393.5 162t-149.5 426zM287 563q0 -182 93 -292.5t245 -110.5q151 0 243.5 111t92.5 292t-92.5 292.5t-243.5 111.5q-152 0 -245 -111t-93 -293zM299 1397 q39 81 86 125.5t113 44.5q36 0 72.5 -15.5t61 -34t52.5 -34t49 -15.5q64 0 96 91l119 -70q-40 -81 -86.5 -125.5t-111.5 -44.5q-36 0 -72.5 15.5t-61.5 33.5t-53 33.5t-49 15.5q-64 0 -96 -90z" />
<glyph unicode="&#xf6;" horiz-adv-x="1247" d="M82 563q0 264 149.5 426t393.5 162q243 0 391.5 -162t148.5 -426t-148.5 -426t-391.5 -162q-244 0 -393.5 162t-149.5 426zM287 563q0 -182 93 -292.5t245 -110.5q151 0 243.5 111t92.5 292t-92.5 292.5t-243.5 111.5q-152 0 -245 -111t-93 -293zM299 1337v228h213v-228 h-213zM737 1337v228h213v-228h-213z" />
<glyph unicode="&#xf7;" d="M102 467v199h971v-199h-971zM475 100v228h225v-228h-225zM475 805v227h225v-227h-225z" />
<glyph unicode="&#xf8;" horiz-adv-x="1300" d="M82 563q0 264 149.5 426t393.5 162q243 0 391.5 -162t148.5 -426t-148.5 -426t-391.5 -162q-244 0 -393.5 162t-149.5 426zM287 563q0 -152 67 -258l453 606q-77 56 -182 56q-152 0 -245 -111t-93 -293zM455 205q76 -45 170 -45q151 0 243.5 111t92.5 292q0 144 -60 246z " />
<glyph unicode="&#xf9;" horiz-adv-x="1265" d="M156 451v675h204v-675q0 -145 46 -214t153 -69q98 0 193 62t145 139v757h205v-1126h-191v170l-4 2q-84 -89 -176 -143t-209 -54q-366 0 -366 476zM342 1452l92 160l395 -205l-75 -131z" />
<glyph unicode="&#xfa;" horiz-adv-x="1265" d="M156 451v675h204v-675q0 -145 46 -214t153 -69q98 0 193 62t145 139v757h205v-1126h-191v170l-4 2q-84 -89 -176 -143t-209 -54q-366 0 -366 476zM428 1407l395 205l92 -160l-411 -176z" />
<glyph unicode="&#xfb;" horiz-adv-x="1265" d="M156 451v675h204v-675q0 -145 46 -214t153 -69q98 0 193 62t145 139v757h205v-1126h-191v170l-4 2q-84 -89 -176 -143t-209 -54q-366 0 -366 476zM297 1372l332 225l332 -225l-72 -125l-260 168l-260 -168z" />
<glyph unicode="&#xfc;" horiz-adv-x="1265" d="M156 451v675h204v-675q0 -145 46 -214t153 -69q98 0 193 62t145 139v757h205v-1126h-191v170l-4 2q-84 -89 -176 -143t-209 -54q-366 0 -366 476zM303 1337v228h213v-228h-213zM741 1337v228h213v-228h-213z" />
<glyph unicode="&#xfd;" horiz-adv-x="1112" d="M20 1126h207l328 -960h4l334 960h199l-400 -1126l-65 -182q-47 -132 -133 -194t-220 -62q-121 0 -186 35l74 155q27 -10 94 -10q85 0 127.5 34.5t77.5 114.5l41 109h-90zM356 1407l396 205l92 -160l-412 -176z" />
<glyph unicode="&#xfe;" horiz-adv-x="1239" d="M164 -430v1986h205v-542l4 -2q139 139 325 139q217 0 338 -152t121 -426q0 -265 -148 -431.5t-378 -166.5q-156 0 -258 64l-4 -2v-467h-205zM369 223q82 -63 229 -63q166 0 260 115t94 298q0 185 -82.5 289.5t-228.5 104.5q-92 0 -160.5 -41t-111.5 -99v-604z" />
<glyph unicode="&#xff;" horiz-adv-x="1112" d="M20 1126h207l328 -960h4l334 960h199l-400 -1126l-65 -182q-47 -132 -133 -194t-220 -62q-121 0 -186 35l74 155q27 -10 94 -10q85 0 127.5 34.5t77.5 114.5l41 109h-90zM231 1337v228h213v-228h-213zM670 1337v228h213v-228h-213z" />
<glyph unicode="&#x152;" horiz-adv-x="2519" d="M102 717q0 333 195 537t514 204q204 0 352.5 -88.5t227.5 -249.5h4q85 161 245 249.5t379 88.5q235 0 418 -94l-94 -162q-137 60 -324 60q-212 0 -354 -116t-178 -310h797v-191h-803q22 -214 168 -343.5t370 -129.5q190 0 324 59l94 -161q-185 -95 -418 -95 q-219 0 -379 88.5t-245 249.5h-4q-79 -161 -227.5 -249.5t-352.5 -88.5q-319 0 -514 204.5t-195 537.5zM319 717q0 -246 135.5 -395.5t356.5 -149.5q220 0 354.5 149.5t134.5 395.5t-134.5 395.5t-354.5 149.5q-221 0 -356.5 -149.5t-135.5 -395.5z" />
<glyph unicode="&#x153;" horiz-adv-x="2064" d="M82 563q0 264 152 426t401 162q148 0 258.5 -60.5t177.5 -172.5h4q64 111 170 172t244 61q226 0 348.5 -151.5t122.5 -432.5v-63h-799q19 -159 124.5 -251.5t273.5 -92.5q92 0 178.5 19t128.5 42l84 -147q-49 -37 -151.5 -68t-252.5 -31q-165 0 -283 61.5t-186 174.5h-4 q-67 -113 -178.5 -174.5t-259.5 -61.5q-249 0 -401 162t-152 426zM287 563q0 -182 95.5 -292.5t252.5 -110.5q155 0 250.5 111t95.5 292t-95.5 292.5t-250.5 111.5q-157 0 -252.5 -111t-95.5 -293zM1169 676h594q0 134 -73.5 212.5t-200.5 78.5q-126 0 -210.5 -78 t-109.5 -213z" />
<glyph unicode="&#x178;" horiz-adv-x="1220" d="M31 1434h229l162 -310q63 -121 110.5 -218.5t63.5 -135.5l16 -37h4q56 120 195 393l160 308h219l-475 -908v-526h-211v530zM274 1577v231h230v-231h-230zM725 1577v231h229v-231h-229z" />
<glyph unicode="&#x2000;" horiz-adv-x="954" />
<glyph unicode="&#x2001;" horiz-adv-x="1909" />
<glyph unicode="&#x2002;" horiz-adv-x="954" />
<glyph unicode="&#x2003;" horiz-adv-x="1909" />
<glyph unicode="&#x2004;" horiz-adv-x="636" />
<glyph unicode="&#x2005;" horiz-adv-x="477" />
<glyph unicode="&#x2006;" horiz-adv-x="318" />
<glyph unicode="&#x2007;" horiz-adv-x="318" />
<glyph unicode="&#x2008;" horiz-adv-x="238" />
<glyph unicode="&#x2009;" horiz-adv-x="381" />
<glyph unicode="&#x200a;" horiz-adv-x="106" />
<glyph unicode="&#x2010;" horiz-adv-x="819" d="M82 473v184h655v-184h-655z" />
<glyph unicode="&#x2011;" horiz-adv-x="819" d="M82 473v184h655v-184h-655z" />
<glyph unicode="&#x2012;" horiz-adv-x="819" d="M82 473v184h655v-184h-655z" />
<glyph unicode="&#x2013;" horiz-adv-x="1044" d="M82 479v174h881v-174h-881z" />
<glyph unicode="&#x2014;" horiz-adv-x="1925" d="M82 479v174h1761v-174h-1761z" />
<glyph unicode="&#x2018;" horiz-adv-x="495" d="M96 1063l170 473h162l-111 -473h-221z" />
<glyph unicode="&#x2019;" horiz-adv-x="495" d="M96 1063l111 473h221l-170 -473h-162z" />
<glyph unicode="&#x201a;" horiz-adv-x="659" d="M164 -221l110 473h222l-170 -473h-162z" />
<glyph unicode="&#x201c;" horiz-adv-x="874" d="M96 1063l170 473h162l-111 -473h-221zM475 1063l170 473h162l-111 -473h-221z" />
<glyph unicode="&#x201d;" horiz-adv-x="874" d="M96 1061l111 473h221l-170 -473h-162zM475 1061l111 473h221l-170 -473h-162z" />
<glyph unicode="&#x201e;" horiz-adv-x="659" d="M164 -221l110 473h222l-170 -473h-162z" />
<glyph unicode="&#x2022;" horiz-adv-x="714" d="M164 565q0 80 56.5 136.5t137.5 56.5q80 0 136.5 -57t56.5 -136q0 -81 -56.5 -137.5t-136.5 -56.5q-82 0 -138 56t-56 138z" />
<glyph unicode="&#x2026;" horiz-adv-x="1505" d="M164 0v252h244v-252h-244zM631 0v252h243v-252h-243zM1098 0v252h243v-252h-243z" />
<glyph unicode="&#x202f;" horiz-adv-x="381" />
<glyph unicode="&#x2039;" horiz-adv-x="677" d="M61 563l361 520l174 -100l-303 -420l303 -420l-174 -100z" />
<glyph unicode="&#x203a;" horiz-adv-x="677" d="M82 143l303 420l-303 420l174 100l360 -520l-360 -520z" />
<glyph unicode="&#x205f;" horiz-adv-x="477" />
<glyph unicode="&#x20ac;" horiz-adv-x="1126" d="M41 498v141h154q-2 25 -2 78q0 16 1 45t1 43h-154v141h172q46 250 194 381t384 131q181 0 296 -65l-88 -152q-91 31 -213 31q-144 0 -237.5 -84t-132.5 -242h508v-141h-529q-4 -58 -4 -88q0 -53 2 -78h531v-141h-510q37 -163 132 -249.5t240 -86.5q135 0 213 20l88 -151 q-125 -56 -296 -56q-239 0 -388 134.5t-192 388.5h-170z" />
<glyph unicode="&#x2122;" horiz-adv-x="1314" d="M82 1333v101h434v-101h-158v-465h-118v465h-158zM575 868v566h144l174 -308h4l172 308h143v-566h-114l2 404l-4 2l-168 -289h-64l-174 289l-4 -2l2 -404h-113z" />
<glyph unicode="&#x25fc;" horiz-adv-x="1126" d="M0 0v1126h1126v-1126h-1126z" />
</font>
</defs>
</svg>
